miner

data-autostart="true" Loading...

Apr 17, 2012

#NowPlaying: @KrizzKaliko - Abu Dhabi [SINGLE][2012]

[[posterous-content:pid___0]]

MP3 WAS RIPPED FROM 1080 MP4 - THEN AUDIO WAS STRIPPED AND CONVERTED DOWN TO MP3 V0 (VBR 0)

[[posterous-content:pid___1]]

LOG FILE:

Channels       : 2

Sample Rate    : 44100

Precision      : 16-bit

Duration       : 00:03:11.01 = 8423409 samples = 14325.5 CDDA sectors

File Size      : 6.06M

Bit Rate       : 254k

Sample Encoding: MPEG audio (layer I, II or III)

Posted via email from We're All A Bit Insane Here

No comments:

Post a Comment